<?xml version="1.0" standalone="no"?>
<!DOCTYPE svg PUBLIC "-//W3C//DTD SVG 1.1//EN" "http://www.w3.org/Graphics/SVG/1.1/DTD/svg11.dtd" >
<svg xmlns="http://www.w3.org/2000/svg">
<metadata>Generated by IcoMoon</metadata>
<defs>
<font id="ZM-Icons" horiz-adv-x="1024">
<font-face units-per-em="1024" ascent="960" descent="-64" />
<missing-glyph horiz-adv-x="1024" />
<glyph unicode="&#x20;" horiz-adv-x="512" d="" />
<glyph unicode="&#x66;" glyph-name="facebook" d="M589.829-31.999v389.788h130.703l24.885 183.468h-155.588v119.13c0 50.185 21.738 99.117 91.435 99.117h70.736v156.109c0 0-64.2 12.386-125.594 12.386-128.195 0-211.893-87.856-211.893-246.911v-139.834h-142.515v-183.468h142.515v-389.788h175.314z" />
<glyph unicode="&#x78;" glyph-name="close" d="M441.262 448.010l-409.262-409.262 70.739-70.739 409.262 409.262 409.26-409.262 70.739 70.739-409.258 409.262 409.24 409.242-70.739 70.739-409.242-409.242-409.242 409.242-70.739-70.739 409.242-409.242z" />
<glyph unicode="&#xe900;" glyph-name="logo" horiz-adv-x="3648" d="M1440.244 447.939c0 211.584 172.157 383.739 383.739 383.739 211.611 0 383.737-172.136 383.737-383.739s-172.147-383.76-383.737-383.76c-211.584 0-383.739 172.176-383.739 383.76zM1916.247 444.359v32.736h-48.252l112.599 182.16v8.446c0 6.498 0.040 12.35 0.040 12.35h-306.953c0 0 0.072-5.852 0.072-12.35v-20.794c0-6.496-0.072-12.35-0.072-12.35h236.049v-1.951l-95.68-155.511h-76.101v-32.736c0-7.482 0.27-12.957 0.27-12.957h47.751l-112.2-182.323v-11.706c0-6.496 0.072-12.35 0.072-12.35h306.789v45.496h-239.91v0.645l99.028 160.236h76.637c0 0-0.143 5.475-0.143 12.957zM2282.557 722.030c0 0 576.482 0.645 675.725 0.645 151.212 0 655.816-53.709 661.668-265.794 6.951-249.331-544.133-274.336-644.325-274.336h-778.155c-83.119-116.745-219.229-193.132-373.471-193.132s-290.352 76.387-373.485 193.132h-709.851c-231.165 0-712.68 52.385-712.68 278.234 0 241.633 524.556 261.896 697.377 261.896 77.693 0 400.26-0.127 731.832-0.27 83.634 111.626 216.434 184.183 366.809 184.183 150.377 0 283.42-72.7 367.039-184.523 57.705-0.037 91.52-0.036 91.52-0.036zM2273.597 538.026c3.727-18.684 5.928-37.872 7.281-57.29 595.678-0.159 1107.928-0.286 1199.622-0.286-109.982 45.173-451.379 58.059-518.103 58.059-9.231 0-58.169-0.038-135.9-0.096-124.928-0.096-324.287-0.244-552.9-0.387zM2274.29 362.632h727.038c326.18 0 416.192 16.34 476.58 53.172h-1196.994c-1.255-18.021-3.34-35.792-6.624-53.172zM2236.15 248.032h757.937c241.553 0 433.437 65.486 468.759 94.912-74.602-23.571-365.364-37.602-461.613-37.602h-741.618c-6.469-19.777-14.445-38.82-23.463-57.309zM1407.272 448.017c0-229.786 186.941-416.726 416.707-416.726 229.79 0 416.749 186.957 416.749 416.726s-186.977 416.708-416.749 416.708c-229.767 0-416.707-186.92-416.707-416.708zM736.5 248.026h0.136c2.93 0.004 5.647 0.006 8.14 0.006h667.041c-8.985 18.49-16.984 37.532-23.463 57.309h-642.554c-72.645 0-448.743 3.884-562.644 41.218 146.558-99.041 459.178-98.649 553.346-98.531zM1373.679 362.632c-3.276 17.38-5.37 35.151-6.622 53.172h-1201.227c62.857-39.267 388.554-53.172 508.379-53.172h699.473zM1374.323 537.649c-378.766-0.035-686.119 0.161-724.671 0.859-106.041 2.021-349.395-8.16-486.884-57.237 17.502 0 226.978-0.052 533.158-0.13l671.163-0.172c1.379 19.22 3.564 38.192 7.233 56.679zM1416.239 657.206h-750.228c0 0-310.039 7.783-484.807-100.3 52.994 21.639 336.509 43.007 483.789 43.007 53.71 0 356.965-0.035 726.708-0.089 6.945 19.777 15.071 38.944 24.538 57.38zM3462.846 553.113c-135.512 86.409-394.447 104.093-500.449 104.093h-730.649c9.482-18.452 17.593-37.64 24.565-57.433 365.093-0.016 660.837 0.016 707.049 0.143 127.535 0.323 356.151-3.597 499.484-46.802z" />
<glyph unicode="&#xe901;" glyph-name="extern" d="M225.413 926.606h765.195v-751.863h-90.651v597.113l-802.466-802.462-64.099 64.094 802.465 802.467h-610.446v90.651z" />
<glyph unicode="&#xe903;" glyph-name="download" d="M555.15 928v-543.025l249.942 249.94 61.013-61.018-354.103-354.105-354.105 354.105 61.017 61.018 249.941-249.94v543.025h86.293zM177.618 172.945v-118.652h668.764v118.652h86.293v-204.945h-841.349v204.945h86.293z" />
<glyph unicode="&#xe904;" glyph-name="upload" d="M511.987 928.001l405.046-405.045-60.572-60.57-301.622 301.622v-539.019h-85.66v539.064l-301.668-301.668-60.57 60.57 405.045 405.045zM83.704-32h856.593v85.66h-856.593v-85.66z" />
<glyph unicode="&#xe905;" glyph-name="reload" horiz-adv-x="1312" d="M171.455 496.332l-95.779 137.354-40.853-29.869 148.149-212.453 207.48 151.699-29.171 41.834-141.057-103.135c26.567 222.507 211.735 394.837 436.209 394.837 189.201 0 350.538-122.438 412.448-294.24l47.093 17.794c-68.948 191.344-248.643 327.849-459.541 327.849-247.328 0-451.827-187.756-484.978-431.667zM1277.176 294.774l-148.148 212.453-207.482-151.699 29.171-41.834 133.742 97.785c-27.765-221.171-212.326-392.079-435.874-392.079-189.198 0-350.537 122.437-412.445 294.24l-47.095-17.794c68.95-191.345 248.645-327.849 459.54-327.849 250.928 0 457.77 193.259 486.318 442.345l101.418-145.44 40.853 29.869z" />
<glyph unicode="&#xe906;" glyph-name="search" d="M734.138 525.555c0 172.11-138.366 310.583-307.765 310.583-169.397 0-307.766-138.473-307.766-310.583s138.369-310.582 307.766-310.582c169.399 0 307.765 138.471 307.765 310.582zM682.378 223.884c-68.864-59.333-158.278-95.162-256.005-95.162-217.611 0-394.019 177.668-394.019 396.835s176.408 396.835 394.019 396.835c217.61 0 394.018-177.67 394.018-396.835 0-89.545-29.447-172.166-79.123-238.569l250.378-252.173-60.768-61.205-248.5 250.276z" />
<glyph unicode="&#xe907;" glyph-name="date-picker-arrow" horiz-adv-x="1120" d="M545.337 46.601l341.771 349.354h-856.792v110.080h849.678l-335.911 343.367 76.149 77.836 469.452-479.878-468.2-478.598-76.149 77.838z" />
<glyph unicode="&#xe908;" glyph-name="pagination-arrow" horiz-adv-x="672" d="M478.297 448.002l-441.883 401.709 71.173 78.289 527.998-479.997-527.998-480.003-71.173 78.291 441.883 401.712z" />
<glyph unicode="&#xe909;" glyph-name="slider-arrow" horiz-adv-x="595" d="M413.706 448l-380.206 403.689 75.92 76.311 452.080-480-452.080-480-75.92 76.31 380.206 403.69z" />
<glyph unicode="&#xe90a;" glyph-name="accordion-arrow" d="M27.429 682.352l48.069 48.315 436.502-465.73 436.502 465.73 48.069-48.315-484.571-517.019-484.571 517.019z" />
<glyph unicode="&#xe90b;" glyph-name="dropdown-arrow" d="M995.661 658.585l-483.652-483.654-483.669 483.671 62.466 62.467 421.203-421.205 421.186 421.186 62.466-62.464z" />
<glyph unicode="&#xe90c;" glyph-name="blog" d="M60.871 823.904v-231.325c0-57.461 46.555-104.047 104.004-104.097h404.911c57.492 0 104.097 46.605 104.097 104.097v231.325c0 57.492-46.605 104.097-104.097 104.097h-404.819c-57.492 0-104.097-46.605-104.097-104.097zM469.547 581.012l-141.88 106.41c-17.348 13.010-41.404 12.226-57.867-1.885l-114.965-98.54c-0.915 1.656-1.434 3.557-1.434 5.583v231.325c0 6.388 5.177 11.565 11.565 11.565h404.819c6.388 0 11.565-5.177 11.565-11.565v-231.325c0-6.388-5.177-11.565-11.565-11.565h-100.24zM60.871 361.254c0 25.551 20.715 46.265 46.265 46.265h809.638c25.549 0 46.265-20.714 46.265-46.265 0-25.549-20.715-46.265-46.265-46.265h-809.638c-25.551 0-46.265 20.715-46.265 46.265zM107.135 234.025c-25.551 0-46.265-20.715-46.265-46.265s20.715-46.265 46.265-46.265h809.638c25.549 0 46.265 20.715 46.265 46.265s-20.715 46.265-46.265 46.265h-809.638zM60.871 14.265c0 25.549 20.715 46.265 46.265 46.265h809.638c25.549 0 46.265-20.715 46.265-46.265s-20.715-46.265-46.265-46.265h-809.638c-25.551 0-46.265 20.715-46.265 46.265zM778.071 581.012c-25.555 0-46.265-20.714-46.265-46.265s20.71-46.265 46.265-46.265h138.795c25.549 0 46.265 20.714 46.265 46.265s-20.715 46.265-46.265 46.265h-138.795zM731.806 708.241c0 25.551 20.71 46.265 46.265 46.265h138.795c25.549 0 46.265-20.714 46.265-46.265s-20.715-46.265-46.265-46.265h-138.795c-25.555 0-46.265 20.714-46.265 46.265zM778.071 928c-25.555 0-46.265-20.715-46.265-46.265s20.71-46.265 46.265-46.265h138.795c25.549 0 46.265 20.714 46.265 46.265s-20.715 46.265-46.265 46.265h-138.795z" />
<glyph unicode="&#xe90d;" glyph-name="podcast" d="M630.308 737.091c0 61.253-52.965 110.909-118.304 110.909s-118.304-49.656-118.304-110.909v-218.181c0-61.253 52.965-110.909 118.304-110.909s118.304 49.656 118.304 110.909v218.181zM308.368 737.091c0 105.435 91.171 190.909 203.636 190.909s203.636-85.473 203.636-190.909v-218.181c0-105.435-91.171-190.909-203.636-190.909s-203.636 85.473-203.636 190.909v218.181zM465.413 222.069v-166.794h-215.228v-87.275h523.636v87.275h-215.319v166.779c154.693 21.114 273.499 145.979 273.499 296.856h-85.334c0-121.503-105.065-219.998-234.667-219.998s-234.667 98.495-234.667 219.998h-85.334c0.001-150.851 118.76-275.693 273.408-296.839z" />
<glyph unicode="&#xe90e;" glyph-name="video" d="M144.753 860.238h585.449c58.788 0 106.448-47.656 106.448-106.448v-19.8l82.848 55.231c13.067 8.71 29.871 9.52 43.71 2.113s22.485-21.836 22.485-37.54v-345.948c0-15.704-8.644-30.132-22.485-37.54s-30.648-6.597-43.71 2.113l-82.848 55.231v-46.417c0-58.788-47.654-106.448-106.448-106.448h-191.442l145.251-186.748-67.22-52.281-152.671 196.291-152.671-196.291-67.217 52.281 145.251 186.748h-244.73c-58.786 0-106.448 47.654-106.448 106.448v372.559c0 58.786 47.656 106.448 106.448 106.448zM730.202 775.082h-585.449c-11.76 0-21.291-9.532-21.291-21.291v-372.559c0-11.76 9.532-21.291 21.291-21.291h585.449c11.76 0 21.291 9.532 21.291 21.291v372.559c0 11.76-9.532 21.291-21.291 21.291zM836.649 631.644v-101.648l63.888-42.593v186.835l-63.888-42.593z" />
<glyph unicode="&#xe910;" glyph-name="youtube" d="M985.507 678.736c20.612-75.074 20.612-231.522 20.612-231.522s0-156.448-20.612-231.261c-11.456-41.474-44.784-72.711-87.474-83.736-76.785-20.213-386.028-20.213-386.028-20.213s-309.241 0-386.028 19.951c-42.689 11.031-76.017 42.263-87.474 83.736-20.612 75.074-20.612 231.522-20.612 231.522s0 156.71 20.612 231.522c11.456 41.48 44.783 74.027 87.474 85.049 76.785 20.213 386.028 20.213 386.028 20.213s309.241 0 386.028-20.213c42.691-11.022 76.018-43.569 87.474-85.049zM669.487 447.472l-258.447 142.012v-284.022l258.447 142.012z" />
<glyph unicode="&#xe911;" glyph-name="instagram" d="M375.232 243.479c40.419-27.045 87.996-41.475 136.689-41.475 19.016-0.024 37.952 2.16 56.413 6.471 12.887 3.024 25.536 7.093 37.791 12.18 29.835 12.351 57.045 30.476 79.879 53.34 22.832 22.86 40.971 50.008 53.304 79.884s18.701 61.896 18.701 94.228c0 48.673-14.479 96.255-41.533 136.726-26.972 40.471-65.4 72.015-110.432 90.646-44.955 18.627-94.365 23.502-142.099 14.001-47.738-9.495-91.576-32.93-126.026-67.354-34.371-34.419-57.842-78.266-67.309-126.011-9.467-47.736-4.614-97.219 14.003-142.191 18.617-44.968 50.124-83.404 90.621-110.445zM423.049 581.187c26.255 17.596 57.207 26.992 88.872 27.008 42.489-0.015 83.145-16.885 113.216-46.903 29.996-30.015 46.864-70.725 46.864-113.185 0-31.661-9.388-62.608-26.972-88.936-17.584-26.325-42.564-46.841-71.764-58.965-29.28-12.116-61.425-15.287-92.451-9.116-31.108 6.171-59.594 21.411-81.949 43.791-12.015 11.964-21.959 25.676-29.518 40.592-6.604 12.996-11.457 26.904-14.322 41.359-6.205 31.052-3.023 63.236 9.071 92.492s32.621 54.257 58.956 71.861zM736.207 656.758c9.467-6.312 20.524-9.675 31.905-9.669 7.635-0.114 15.116 1.377 22.116 4.276 6.924 2.895 13.288 7.143 18.619 12.49 5.327 5.347 9.549 11.692 12.411 18.675 2.865 6.977 4.296 14.458 4.296 22.005 0 11.359-3.42 22.471-9.707 31.916-6.285 9.45-15.276 16.812-25.776 21.159-10.504 4.347-22.039 5.48-33.18 3.262-11.136-2.218-21.401-7.695-29.436-15.727-4.061-4.054-7.481-8.664-10.104-13.672-2.627-4.924-4.536-10.226-5.571-15.752-1.273-6.53-1.431-13.206-0.476-19.725 0.636-4.602 1.907-9.122 3.739-13.464 1.989-4.751 4.611-9.187 7.716-13.206 3.739-4.864 8.276-9.117 13.449-12.568zM911.084 48.94c56.173 55.999 73.676 124.159 77.576 201.084 4.453 79.352 4.453 316.815 0 395.807-3.66 76.923-21.564 145.113-77.576 201.235s-124.116 73.71-201.051 77.58c-79.245 4.471-316.819 4.471-396.063 0-76.619-3.661-144.724-21.367-201.054-77.371s-73.674-124.163-77.573-201.086c-4.455-79.201-4.455-316.874 0-396.165 3.66-76.772 21.322-144.964 77.573-201.084 56.251-56.124 124.118-73.712 201.054-77.589 79.245-4.468 316.819-4.468 396.063 0 76.856 3.669 144.881 21.585 201.051 77.589zM877.829 749.031c3.105-5.745 5.889-11.684 8.276-17.786 21.641-54.243 20.445-172.224 19.652-248.812l-0.24-34.324 0.24-34.324c0.793-76.636 1.989-194.751-19.496-248.784-8.192-20.655-20.445-39.416-36.12-55.116-15.752-15.701-34.528-28.005-55.136-36.156-54.184-21.516-172.096-20.325-248.713-19.547l-34.213 0.249c-70.016 0-219.99-5.58-283.005 19.301-20.685 8.151-39.464 20.456-55.137 36.156s-28.005 34.459-36.121 55.116c-21.482 54.435-20.368 173.205-19.652 249.771l0.239 33.364-0.239 33.525c-0.716 76.605-1.83 195.361 19.492 249.585 4.137 10.395 9.228 20.307 15.355 29.595 6.046 9.165 13.048 17.721 20.845 25.519 15.675 15.703 34.452 28.006 55.058 36.159 54.182 21.516 172.173 20.323 248.791 19.545l34.213-0.249 33.495 0.228c76.62 0.735 195.249 1.875 249.429-19.526 12.969-5.117 25.219-11.872 36.439-20.074 6.604-4.865 12.887-10.242 18.696-16.085 11.059-11.056 20.447-23.635 27.849-37.328z" />
<glyph unicode="&#xe912;" glyph-name="x" d="M615.667 515.744l328.631 375.464h-150.425l-247.543-283.336-214.303 283.336h-310.245l370.682-484.683-351.376-401.732h150.339l271.297 309.929 236.796-309.929h302.694l-386.548 510.951zM286.701 806.049l537.893-711.353h-83.606l-543.854 711.353h89.567z" />
<glyph unicode="&#xe913;" glyph-name="linkedin" d="M992 332.962v-364.962h-202.127v340.515c0 85.541-29.235 143.918-102.402 143.918-55.85 0-89.087-39.343-103.711-77.398-5.332-13.605-6.706-32.544-6.706-51.586v-355.449h-202.196c0 0 2.723 576.723 0 636.476h202.179v-90.219c-0.41-0.675-0.943-1.402-1.332-2.055h1.332v2.055c26.863 43.306 74.833 105.17 182.207 105.17 133.030 0.002 232.755-90.969 232.755-286.467zM152.732 928c-72.99 0-120.732-51.816-120.732-119.955 0-66.655 46.361-120.045 117.899-120.045h1.425c74.404 0 120.675 53.379 120.675 120.045-1.402 68.141-46.273 119.955-119.268 119.955zM32-32h205.715v651.429h-205.715v-651.429z" />
<glyph unicode="&#xe914;" glyph-name="tiktok" d="M895.31 819.934c-5.652 3.602-11.301 3.602-16.953 1.801-47.092-19.813-96.066-5.404-124.315 30.618-13.186 16.211-20.722 37.823-20.722 57.636 0 5.404-1.88 9.006-5.652 12.608-3.765 3.602-7.532 5.404-13.183 5.404h-192.127c-11.301 0-18.835-7.205-18.835-18.012v-639.402c0-1.798 0-1.798 0-3.6-3.766-32.421-30.137-55.838-64.042-55.838-35.788 0-65.925 28.817-65.925 63.042 0 32.417 24.487 57.635 58.392 61.24 9.417 1.798 16.952 9.002 16.952 18.009v208.932c0 10.807-7.535 18.012-18.836 18.012 0 0-1.883 0-3.766 0-173.29-7.205-307.024-140.486-307.024-306.191 0-169.305 143.152-306.193 320.209-306.193 165.756 0 305.14 122.478 318.326 279.172 1.885 1.802 1.885 5.407 1.885 7.209v347.615c41.438-9.006 84.76-12.608 129.967-5.404 9.417 1.801 15.068 9.006 15.068 18.012v190.92c0 5.403-3.765 10.807-9.417 14.409z" />
</font>
</defs>
</svg>
